Buscar
 
 

Resultados por:
 


Rechercher Búsqueda avanzada

Marzo 2017
LunMarMiérJueVieSábDom
  12345
6789101112
13141516171819
20212223242526
2728293031  

Calendario Calendario

Compañeros

Crear foro



Compañeros

Crear foro




La Cosa [TS-Screener][Español][Ciencia ficcionTerror][2011]

Ver el tema anterior Ver el tema siguiente Ir abajo

La Cosa [TS-Screener][Español][Ciencia ficcionTerror][2011]

Mensaje  nueve93 el Dom Oct 23, 2011 11:34 am





Ficha Tecnica

TÍTULO ORIGINAL The Thing
AÑO 2011
DURACIÓN 103 min.
PAÍS EE:UU
DIRECTOR Matthijs van Heijningen Jr.
GUIÓN Eric Heisserer, Ronald D. Moore (Historia corta: John W. Campbell Jr.)
MÚSICA Marco Beltrami
FOTOGRAFÍA Michel Abramowicz
REPARTO Mary Elizabeth Winstead, Eric Christian Olsen, Joel Edgerton, Ulrich Thomsen, Jonathan Walker, Dennis Storhøi, Kim Bubbs, Stig Henrik Hoff
PRODUCTORA Strike Entertainment / Universal Pictures
WEB OFICIAL http://www.quieneslacosa.es/
GÉNERO Ciencia ficción. Terror | Precuela. Extraterrestres

Sinopsis

En una remota zona de la Antártida, un descubrimiento de gran relevancia científica se convierte en un problema de supervivencia. La paleontóloga Kate Lloyd (Mary Elizabeth Winstead) llega a esa inhóspita región para colaborar con un equipo científico noruego que ha encontrado una nave extraterrestre enterrada en el hielo, en cuyo interior hay un ser alienígena congelado pero cuyas células están vivas... Precuela de "La Cosa", película dirigida por John Carpenter y protagonizada por Kurt Russell, que se basaba en un clásico de serie B de los años 50.

Capturas



Codigo Pelicula

Spoiler:


General

Complete name : files/La_Cosa_[CAM][Xvid][Castellano].avi
Format : AVI
Format/Info : Audio Video Interleave
File size : 1.33 GiB
Duration : 1h 25mn
Overall bit rate : 2 230 Kbps
Writing application : VirtualDubMod 1.5.10.2 (build 2540/release)
Writing library : VirtualDubMod build 2540/release

Video

ID : 0
Format : MPEG-4 Visual
Format profile : Advanced Simple@L5
Format settings, BVOP : Yes
Format settings, QPel : No
Format settings, GMC : No warppoints
Format settings, Matrix : Default (H.263)
Muxing mode : Packed bitstream
Codec ID : XVID
Codec ID/Hint : XviD
Duration : 1h 25mn
Bit rate : 2 090 Kbps
Width : 720 pixels
Height : 304 pixels
Display aspect ratio : 2.35:1
Frame rate : 29.970 fps
Color space : YUV
Chroma subsampling : 4:2:0
Bit depth : 8 bits
Scan type : Progressive
Bits/(Pixel*Frame) : 0.319
Stream size : 1.25 GiB (94%)
Writing library : XviD 64

Audio

ID : 1
Format : MPEG Audio
Format version : Version 1
Format profile : Layer 3
Mode : Joint stereo
Mode extension : MS Stereo
Codec ID : 55
Codec ID/Hint : MP3
Duration : 1h 25mn
Bit rate mode : Constant
Bit rate : 128 Kbps
Channel(s) : 2 channels
Sampling rate : 44.1 KHz
Stream size : 78.4 MiB (6%)
Alignment : Split accross interleaves
Interleave, duration : 33 ms (1.00 video frame)
Interleave, preload duration : 500 ms





Código:
http://www.filesonic.com/file/2704984391

http://www.wupload.com/file/859693871

http://ul.to/jprrlvir


nueve93

Mensajes : 98
Fecha de inscripción : 07/10/2011

Ver perfil de usuario

Volver arriba Ir abajo

Ver el tema anterior Ver el tema siguiente Volver arriba

- Temas similares

 
Permisos de este foro:
No puedes responder a temas en este foro.