Buscar
 
 

Resultados por:
 


Rechercher Búsqueda avanzada

Palabras claves

excel  magazine  peliculas  private  lucia  corel  

Octubre 2017
LunMarMiérJueVieSábDom
      1
2345678
9101112131415
16171819202122
23242526272829
3031     

Calendario Calendario

Compañeros

Crear foro



Compañeros

Crear foro




Algo Prestado [DvdRip] [Dual(Cast/Ing)][Comedia][2011]

Ver el tema anterior Ver el tema siguiente Ir abajo

Algo Prestado [DvdRip] [Dual(Cast/Ing)][Comedia][2011]

Mensaje  nueve93 el Sáb Oct 22, 2011 6:31 pm





Ficha Tecnica

TÍTULO ORIGINAL Something Borrowed
Algo Prestado
AÑO
2011
DURACIÓN
103 min. Trailers/Vídeos
PAÍS
[Estados Unidos] Sección visual
DIRECTOR Luke Greenfield
GUIÓN Jennie Snyder, Jennie Urman (Novela: Emily Giffin)
MÚSICA Alex Wurman
FOTOGRAFÍA Charles Minsky
REPARTO Kate Hudson, Ginnifer Goodwin, John Krasinski, Steve Howey, Ashley Williams, Peyton List, Colin Egglesfield, Jill Eikenberry, Sean Patrick Reilly, Eric West
PRODUCTORA Warner Bros. Pictures
GÉNERO Romance. Comedia. Drama | Comedia romántica. Amistad
Formato Video: DVDRip
Pista Audio: Castellano AC3 5.1/ing Mp3

Sinopsis

Hay una delgada línea entre el amor y la amistad. Darcy (Kate Hudson) y Rachel (Ginnifer Goodwin) son dos buenas amigas de Manhattan cuya amistad se pone a prueba cuando Rachel, en la noche de su 30 cumpleaños, tiene una aventura inesperada con el hombre de sus sueños, Dex (Colin Egglesfield). El problema es que Dex, casualmente… es el prometido de Darcy. A pocos días de la boda de Dex y Darcy, Rachel se debatirá entre salvaguardar su amistad con Darcy o apostar por el que cree que es el amor de su vida.

Capturas



Codigo Pelicula

Spoiler:


General

Complete name : files/Algo.Prestado.D.DUAL_nueve93.avi
Format : AVI
Format/Info : Audio Video Interleave
Format profile : OpenDML
File size : 2.14 GiB
Duration : 1h 48mn
Overall bit rate : 2 837 Kbps
Writing application : VirtualDubMod 1.5.10.2 (build 2540/release)
Writing library : VirtualDubMod build 2540/release

Video

ID : 0
Format : MPEG-4 Visual
Format settings, BVOP : Yes
Format settings, QPel : No
Format settings, GMC : No warppoints
Format settings, Matrix : Default (H.263)
Muxing mode : Packed bitstream
Codec ID : DX50
Codec ID/Hint : DivX 5
Duration : 1h 48mn
Bit rate : 2 242 Kbps
Width : 720 pixels
Height : 404 pixels
Display aspect ratio : 16:9
Frame rate : 25.000 fps
Color space : YUV
Chroma subsampling : 4:2:0
Bit depth : 8 bits
Scan type : Progressive
Bits/(Pixel*Frame) : 0.308
Stream size : 1.69 GiB (79%)
Writing library : DivX 3013

Audio #1

ID : 1
Format : AC-3
Format/Info : Audio Coding 3
Mode extension : CM (complete main)
Codec ID : 2000
Duration : 1h 48mn
Bit rate mode : Constant
Bit rate : 448 Kbps
Channel(s) : 6 channels
Channel positions : Front: L C R, Side: L R, LFE
Sampling rate : 48.0 KHz
Bit depth : 16 bits
Stream size : 346 MiB (16%)
Alignment : Split accross interleaves
Interleave, duration : 40 ms (1.00 video frame)
Interleave, preload duration : 500 ms

Audio #2

ID : 2
Format : MPEG Audio
Format version : Version 1
Format profile : Layer 3
Mode : Joint stereo
Mode extension : MS Stereo
Codec ID : 55
Codec ID/Hint : MP3
Duration : 1h 48mn
Bit rate mode : Constant
Bit rate : 128 Kbps
Channel(s) : 2 channels
Sampling rate : 48.0 KHz
Stream size : 98.9 MiB (5%)
Alignment : Split accross interleaves
Interleave, duration : 40 ms (1.00 video frame)
Interleave, preload duration : 500 ms





Código:
http://www.filesonic.com/file/2694693641/Algo.Prestado.D.DUAL_nueve93.avi.part1.rar
http://www.filesonic.com/file/2694693601/Algo.Prestado.D.DUAL_nueve93.avi.part2.rar
http://www.filesonic.com/file/2694691981/Algo.Prestado.D.DUAL_nueve93.avi.part3.rar

http://www.wupload.com/file/758289446
http://www.wupload.com/file/758294496
http://www.wupload.com/file/758294461


nueve93

Mensajes : 117
Fecha de inscripción : 07/10/2011

Ver perfil de usuario

Volver arriba Ir abajo

Ver el tema anterior Ver el tema siguiente Volver arriba

- Temas similares

 
Permisos de este foro:
No puedes responder a temas en este foro.