Buscar
 
 

Resultados por:
 


Rechercher Búsqueda avanzada

Últimos temas
» Frida 1080p Lat-Cast-Ing 5.1 (2002)
Ayer a las 9:36 pm por goku-hdrip

» Frida 720p Lat-Cast-Ing 5.1 (2002)
Ayer a las 9:34 pm por goku-hdrip

» It-Eso 1080p Lat-Cast-Ing 5.1 (2017)
Ayer a las 11:06 am por goku-hdrip

» It-Eso 720p Lat-Cast-Ing 5.1 (2017)
Ayer a las 11:04 am por goku-hdrip

» 300 1080p Lat-Cast-Ing 5.1 (2006)
Lun Mayo 21, 2018 10:56 pm por goku-hdrip

» 300 720p Lat-Cast-Ing 5.1 (2006)
Lun Mayo 21, 2018 10:54 pm por goku-hdrip

» Cazafantasmas 1080p Lat-Cast-Ing 5.1 (2016)
Lun Mayo 21, 2018 5:41 pm por goku-hdrip

» Cazafantasmas 720p Lat-Cast-Ing 5.1 (2016)
Lun Mayo 21, 2018 5:39 pm por goku-hdrip

» De Stephen King Eso 1080p Lat-Cast-Ing 2.0 (1990)
Dom Mayo 20, 2018 8:10 pm por goku-hdrip

Mayo 2018
LunMarMiérJueVieSábDom
 123456
78910111213
14151617181920
21222324252627
28293031   

Calendario Calendario

Compañeros

Crear foro



Compañeros

Crear foro




Blitz (2011) [DVDRip][Accion] [Español]

Ir abajo

Blitz (2011) [DVDRip][Accion] [Español]

Mensaje  nueve93 el Jue Oct 20, 2011 9:00 am





Ficha Tecnica

Título: Blitz
Título original: Blitz
País: Reino Unido
Estreno en USA:
Estreno en España: 23/06/2011
Productora: Blitz Films, Lionsgate
Director: Elliott Lester
Guión: Nathan Parker
Reparto: Jason Statham, Paddy Considine, Aidan Gillen, Zawe Ashton, David Morrissey, Richard Riddell
Calificación: No recomendada para menores de 16 años

Sinopsis

A Brant, un policía del sur de Londres, acaban de asignarle un nuevo sargento para supervisar su trabajo. El frenético ritmo de la comisaria se acelera cuando un asesino empieza a matar a varios agentes de policía. Brant y Nash se verán envueltos en el juego del gato y el ratón, persiguiendo a contrarreloj al asesino para salvar las vidas de sus colegas.

Capturas



Codigo Pelicula

Spoiler:


Complete name : files/Blitz.DVDRip_Castellano_nueve93.avi
Format : AVI
Format/Info : Audio Video Interleave
File size : 706 MiB
Duration : 1h 33mn
Overall bit rate : 1 060 Kbps
Writing application : MEncoder SVN-r22963
Writing library : MPlayer

Video

ID : 0
Format : MPEG-4 Visual
Format profile : Simple@L1
Format settings, BVOP : No
Format settings, QPel : No
Format settings, GMC : No warppoints
Format settings, Matrix : Default (H.263)
Codec ID : XVID
Codec ID/Hint : XviD
Duration : 1h 33mn
Bit rate : 920 Kbps
Width : 720 pixels
Height : 304 pixels
Display aspect ratio : 2.35:1
Frame rate : 25.000 fps
Color space : YUV
Chroma subsampling : 4:2:0
Bit depth : 8 bits
Scan type : Progressive
Bits/(Pixel*Frame) : 0.168
Stream size : 613 MiB (87%)
Writing library : Lavc51.40.2

Audio

ID : 1
Format : MPEG Audio
Format version : Version 1
Format profile : Layer 3
Codec ID : 55
Codec ID/Hint : MP3
Duration : 1h 33mn
Bit rate mode : Constant
Bit rate : 128 Kbps
Channel(s) : 2 channels
Sampling rate : 44.1 KHz
Stream size : 85.3 MiB (12%)
Alignment : Aligned on interleaves
Interleave, duration : 26 ms (0.65 video frame)
Interleave, preload duration : 522 ms




Código:
http://www.filesonic.com/file/2670775014

http://www.wupload.com/file/566841471


nueve93

Mensajes : 455
Fecha de inscripción : 07/10/2011

Ver perfil de usuario

Volver arriba Ir abajo

Volver arriba

- Temas similares

 
Permisos de este foro:
No puedes responder a temas en este foro.