Buscar
 
 

Resultados por:
 


Rechercher Búsqueda avanzada

Palabras claves

excel  

Últimos temas
Septiembre 2017
LunMarMiérJueVieSábDom
    123
45678910
11121314151617
18192021222324
252627282930 

Calendario Calendario

Compañeros

Crear foro



Compañeros

Crear foro




ChromeSkull Laid to Rest 2 (BDRip)(VOSE)(Terror)(2011)

Ver el tema anterior Ver el tema siguiente Ir abajo

ChromeSkull Laid to Rest 2 (BDRip)(VOSE)(Terror)(2011)

Mensaje  nueve93 el Mar Oct 18, 2011 11:03 am





Ficha Tecnica

Titulo original: ChromeSkull: Laid to Rest 2
Idioma: Ingles
País: Estados Unidos
Año: 2011
Subtitulos: Español pegados al vídeo.
Género: Terror / Horror
Tamaño: 993MB aprox.
Calidad Imagen: BDRip
Formato: AVI

Sinopsis

Comienza tres meses después de la original. Tommy que esta luchando por llegar a encontrar al asesino enmascarado, se topa con otro misterioso asesino llamado Preston, un jugado que tiene una siniestra conexión con Chromeskull. Mientras tanto el asesino a puesto su mirada en una nueva chica, Jess. Al poco tiempo la chica desaparece y el detective King debe correr contra reloj para encontrar a ella y a Tommy, antes de que sea demasiado tarde y tratar de poner fin a la terrorífica herencia de Chromeskull.

Capturas



Codigo Pelicula

Spoiler:


General

Complete name : files/ChromeSkull__nueve93.avi
Format : AVI
Format/Info : Audio Video Interleave
File size : 994 MiB
Duration : 1h 33mn
Overall bit rate : 1 489 Kbps
Writing application : VirtualDubMod 1.5.10.2 (build 2542/release)
Writing library : VirtualDubMod build 2542/release

Video

ID : 0
Format : MPEG-4 Visual
Format profile : Advanced Simple@L5
Format settings, BVOP : Yes
Format settings, QPel : No
Format settings, GMC : No warppoints
Format settings, Matrix : Default (H.263)
Muxing mode : Packed bitstream
Codec ID : XVID
Codec ID/Hint : XviD
Duration : 1h 33mn
Bit rate : 1 161 Kbps
Width : 720 pixels
Height : 400 pixels
Display aspect ratio : 16:9
Frame rate : 23.976 fps
Color space : YUV
Chroma subsampling : 4:2:0
Bit depth : 8 bits
Scan type : Progressive
Bits/(Pixel*Frame) : 0.168
Stream size : 775 MiB (78%)
Writing library : XviD 64

Audio

ID : 1
Format : AC-3
Format/Info : Audio Coding 3
Mode extension : CM (complete main)
Codec ID : 2000
Duration : 1h 33mn
Bit rate mode : Constant
Bit rate : 320 Kbps
Channel(s) : 6 channels
Channel positions : Front: L C R, Side: L R, LFE
Sampling rate : 48.0 KHz
Bit depth : 16 bits
Stream size : 214 MiB (21%)
Alignment : Split accross interleaves
Interleave, duration : 64 ms (1.53 video frames)
Interleave, preload duration : 500 ms





Código:
http://www.filesonic.com/file/2643711051


nueve93

Mensajes : 98
Fecha de inscripción : 07/10/2011

Ver perfil de usuario

Volver arriba Ir abajo

Ver el tema anterior Ver el tema siguiente Volver arriba

- Temas similares

 
Permisos de este foro:
No puedes responder a temas en este foro.