Buscar
 
 

Resultados por:
 


Rechercher Búsqueda avanzada

Noviembre 2017
LunMarMiérJueVieSábDom
  12345
6789101112
13141516171819
20212223242526
27282930   

Calendario Calendario

Compañeros

Crear foro



Compañeros

Crear foro




Riverworld (DVDRip)(Español)(Ciencia ficcion)(2011)

Ver el tema anterior Ver el tema siguiente Ir abajo

Riverworld (DVDRip)(Español)(Ciencia ficcion)(2011)

Mensaje  nueve93 el Dom Oct 16, 2011 4:22 pm



filesonic.com Anna Polina Apprentie Soubrette FRENCHCD1.part1.rar
filesonic.com Anna

Ficha Tecnica

Título : Riverworld
Título Original : Riverworld
Año : 2010
Director : Stuart Gillard
Reparto : Chiara Zanni, Romina D’Ugo, Matty Finochio, Kwesi Ameyaw, Meg Roe, Arnold Pinnock, Bruce Ramsay, Thea Gill, Matthew MacCaull, Tahmoh Penikett, Laura Vandervoort, Alan Cumming, Mark Deklin, Peter Wingfield, Jeananne Goossen
Género : Ciencia Ficción
Calidad del vídeo : DVD RIP
Idioma del audio : Español
Tamaño en Mb : 1105

Sinopsis

Aquí os dejamos esta historia que consta de dos partes en la que se nos pregunta… ¿Qué pasaría si, después de morir, renacieras en otro planeta, junto a otros que vivieron y murieron en la Tierra? ¿Y qué si, en esta vida increíble después de la muerte, todavía se puede volver a morir una y otra vez? Bienvenido a Riverworld, un lugar de extraña y acuosa belleza y el domicilio actual de una fascinante galería de recién (y no tan recientemente) fallecidos. No es ciertamente el Cielo, aunque tal vez podría ser llamado Infierno…

Capturas



Codigo Pelicula

Spoiler:


General

Complete name : files/Riverworld_nueve93.avi
Format : AVI
Format/Info : Audio Video Interleave
File size : 1.08 GiB
Duration : 2h 47mn
Overall bit rate : 920 Kbps
Writing application : VirtualDubMod 1.5.10.2 (build 2540/release)
Writing library : VirtualDubMod build 2540/release

Video

ID : 0
Format : MPEG-4 Visual
Format profile : Advanced Simple@L5
Format settings, BVOP : Yes
Format settings, QPel : No
Format settings, GMC : No warppoints
Format settings, Matrix : Default (H.263)
Muxing mode : Packed bitstream
Codec ID : XVID
Codec ID/Hint : XviD
Duration : 2h 47mn
Bit rate : 687 Kbps
Width : 704 pixels
Height : 400 pixels
Display aspect ratio : 16:9
Frame rate : 25.000 fps
Color space : YUV
Chroma subsampling : 4:2:0
Bit depth : 8 bits
Scan type : Progressive
Bits/(Pixel*Frame) : 0.098
Stream size : 825 MiB (75%)
Writing library : XviD 1.2.1 (UTC 2008-12-04)

Audio

ID : 1
Format : MPEG Audio
Format version : Version 1
Format profile : Layer 3
Mode : Joint stereo
Codec ID : 55
Codec ID/Hint : MP3
Duration : 2h 47mn
Bit rate mode : Constant
Bit rate : 224 Kbps
Channel(s) : 2 channels
Sampling rate : 44.1 KHz
Stream size : 269 MiB (24%)
Alignment : Split accross interleaves
Interleave, duration : 40 ms (1.00 video frame)
Interleave, preload duration : 500 ms
Writing library : LAME3.98.2





Código:
http://www.wupload.com/file/434082615

http://www.filesonic.es/file/2607854181


nueve93

Mensajes : 215
Fecha de inscripción : 07/10/2011

Ver perfil de usuario

Volver arriba Ir abajo

Ver el tema anterior Ver el tema siguiente Volver arriba


 
Permisos de este foro:
No puedes responder a temas en este foro.